A young woman finds herself on the receiving end of a terrifying curse that threatens to take her life in seven days.

Rings (2017) 720p.BRRip.XviD.AC3-RARBG


Video  ID                                       : 0  Format                                   : MPEG-4 Visual  Format profile                           : [email protected]  Format settings, BVOP                    : No  Format settings, QPel                    : No  Format settings, GMC                     : No warppoints  Format settings, Matrix                  : Default (H.263)  Codec ID                                 : XVID  Codec ID/Hint                            : XviD  Duration                                 : 1h 42mn  Bit rate                                 : 3 642 Kbps  Width                                    : 1 280 pixels  Height                                   : 720 pixels  Display aspect ratio                     : 16:9  Frame rate                               : 23.976 fps  Color space                              : YUV  Chroma subsampling                       : 4:2:0  Bit depth                                : 8 bits  Scan type                                : Progressive  Compression mode                         : Lossy  Bits/(Pixel*Frame)                       : 0.165  Stream size                              : 2.60 GiB (85%)  Writing library                          : Lavc56.60.100    Audio  ID                                       : 1  Format                                   : AC-3  Format/Info                              : Audio Coding 3  Mode extension                           : CM (complete main)  Format settings, Endianness              : Big  Codec ID                                 : 2000  Duration                                 : 1h 42mn  Bit rate mode                            : Constant  Bit rate                                 : 640 Kbps  Channel(s)                               : 6 channels  Channel positions                        : Front: L C R, Side: L R, LFE  Sampling rate                            : 48.0 KHz  Frame rate                               : 31.250 fps (1536 spf)  Compression mode                         : Lossy  Stream size                              : 468 MiB (15%)  Alignment                                : Aligned on interleaves  Interleave, duration                     : 42 ms (1.00 video frame)  Interleave, preload duration             : 512 ms
http://lunaticfiles.com/mn0o9tw3au5o/Rings.2017.720p.BRRip.XviD.AC3-RARBG.avi.html    http://catshare.net/1FMUoEPFYzEUFCad    http://ul.to/m42kbp10    http://www.fileshark.pl/pobierz/17183413/4638c/rings-2017-720p-brrip-xvid-ac3-rarbg-avi    https://rapidu.net/6520145962/Rings.2017.720p.BRRip.XviD.AC3-RARBG.avi    https://pobierz.to/9251218b37480d3f/Rings.2017.720p.BRRip.XviD.AC3-RARBG.avi